Pull to refresh

Comments 7

вот поэтому
General
Complete name: tmp\in.wav
File size: 1.21 GiB
eof

Вы что-то готовить не умеете
General
Complete name : S:\2005~2015 Bones (Кости) [ТВ3]\2005~2006 season 1\Bones s01e16 · США · 2005.avi
Format : AVI
Format/Info : Audio Video Interleave
File size : 406 MiB
Duration : 44 min 10 s
Overall bit rate : 1 286 kb/s
Writing application : VirtualDubMod 1.5.10.2 (build 2542/release)
Writing library : VirtualDubMod build 2542/release

Video
ID : 0
Format : MPEG-4 Visual
Format profile : Advanced Simple@L5
Format settings, BVOP : 2
Format settings, QPel : No
Format settings, GMC : No warppoints
Format settings, Matrix : Default (H.263)
Muxing mode : Packed bitstream
Codec ID : XVID
Codec ID/Hint : XviD
Duration : 44 min 10 s
Bit rate : 1 016 kb/s
Width : 624 pixels
Height : 352 pixels
Display aspect ratio : 16:9
Frame rate : 23.976 (24000/1001) FPS
Color space : YUV
Chroma subsampling : 4:2:0
Bit depth : 8 bits
Scan type : Progressive
Compression mode : Lossy
Bits/(Pixel*Frame) : 0.193
Stream size : 321 MiB (79%)
Writing library : XviD 1.1.2 (UTC 2006-11-01)

Audio #1
ID : 1
Format : MPEG Audio
Format version : Version 1
Format profile : Layer 3
Mode : Joint stereo
Mode extension : MS Stereo
Codec ID : 55
Codec ID/Hint : MP3
Duration : 44 min 10 s
Bit rate mode : Constant
Bit rate : 128 kb/s
Channel(s) : 2 channels
Sampling rate : 48.0 kHz
Compression mode : Lossy
Stream size : 40.4 MiB (10%)
Alignment : Aligned on interleaves
Interleave, duration : 42 ms (1.00 video frame)
Interleave, preload duration : 504 ms

Audio #2
ID : 2
Format : MPEG Audio
Format version : Version 1
Format profile : Layer 3
Mode : Joint stereo
Mode extension : MS Stereo
Codec ID : 55
Codec ID/Hint : MP3
Duration : 44 min 10 s
Bit rate mode : Constant
Bit rate : 128 kb/s
Channel(s) : 2 channels
Sampling rate : 48.0 kHz
Compression mode : Lossy
Stream size : 40.4 MiB (10%)
Alignment : Aligned on interleaves
Interleave, duration : 42 ms (1.00 video frame)
Interleave, preload duration : 504 ms

UFO just landed and posted this here
Всё же лучше смотреть на сигнатуры, которые есть в начале практически любого бинарника, а расширения нередко врут. Зная сигнатуры можно даже «взламывать» некоторые «архивы», просто выдирая из них куски от одной сигнатуры до следующей и сохраняя их в отдельные файлы.

да, но это к программистам.
тулза слеплена да 10 минут на коленке
чуть изменил ее, использую не -formats, а -decoders

Если не нужна массовая обработка, достаточно посмотреть на файл хоть в стандартном блокноте и не писать/использовать никаких инструментов. А так да, вполне годное решение за разумное время, сам люблю на AHK завернуть что-нибудь этакое.
Sign up to leave a comment.

Articles